mldnui.biz

Torrents
Documentales 842
Pelculas 11256
Pelculas HD 2068
Series 1961
   Episodios 22513
Series HD 244
   Episodios 2743
Juegos 2689
   PC 1736
Variados 1521
   Deportes 36
   Programas 592
   Videoclips 102
   Otros 722
Msica MP3 3525
Total Torrents 57258

Informacin
Esta web no contiene ningn tipo de fichero almacenado.

Todos los archivos se comparten mediante el BitTorrent, un programa P2P de intercambio entre usuarios.


Descarga la ltima versin de uTorrent y baja a la mxima velocidad:
Ciara - Sorry
Total Descargas:  1.726 En Febrero:  1.726

Fecha:  2016-10-29



Torrent:      Descargar         Tamao:  45,48 MB
Descripcin:

General Complete name : Ciara - Sorry.mp4 Format : MPEG-4 File size :
41.5 MiB Duration : 4mn 41s Overall bit rate mode : Variable Overall bit
rate : 1 238 Kbps

Video ID : 1 Format : AVC Format/Info : Advanced Video Codec Codec ID :
avc1 Codec ID/Info : Advanced Video Coding Duration : 4mn 41s Bit rate
mode : Variable Bit rate : 1 108 Kbps Maximum bit rate : 50.0 Mbps Width
: 1 920 pixels Height : 772 pixels Display aspect ratio : 2.487 Frame rate
mode : Variable Frame rate : 23.976 fps Stream size : 37.1 MiB (89%)

Audio ID : 2
Format : AAC
Format/Info : Advanced Audio Codec
Format profile : LC
Codec ID : 40
Duration : 4mn 41s
Bit rate mode : Variable
Bit rate : 125 Kbps
Maximum bit rate : 211 Kbps
Channel(s) : 2 channels
Channel positions : Front: L R
Sampling rate : 48.0 KHz
Stream size : 4.18 MiB (10%)



Volver al ndice de Variados





(SC2016 Autumn) [いもむや本舗 - Singleton (あずまゆき)] 洋菓子店の甘い誘惑 (オリジナル).zip | The Hitchhiker's Guide To The Galaxy 2005 BD1080P X264 AAC EnglishMandarin CHS-ENG 52movieba 24 minutes | Craig Gillespie