mldnui.biz

Torrents
Documentales 842
Películas 11256
Películas HD 2068
Series 1961
   Episodios 22513
Series HD 244
   Episodios 2743
Juegos 2689
   PC 1736
Variados 1521
   Deportes 36
   Programas 592
   Videoclips 102
   Otros 722
Música MP3 3525
Total Torrents 57258

Información
Esta web no contiene ningún tipo de fichero almacenado.

Todos los archivos se comparten mediante el BitTorrent, un programa P2P de intercambio entre usuarios.


Descarga la última versión de uTorrent y baja a la máxima velocidad:
Pitbull - Feel This Moment (Ft. Christina Aguilera)
Total Descargas:  2.702 En Febrero:  2.702

Fecha:  2016-09-19



Torrent:      Descargar         Tamaño:  52,42 MB
Descripción:

General
Complete name : Pitbull - Feel This Moment (Ft. Christina Aguilera) (1080p) x264 [VX].mp4
Format : MPEG-4
Format profile : Base Media / Version 2
Codec ID : mp42
File size : 47.5 MiB
Duration : 3mn 56s
Overall bit rate mode : Variable
Overall bit rate : 1 686 Kbps

Video
ID : 1
Format : AVC
Format/Info : Advanced Video Codec
Format profile : [email protected]
Width : 1 920 pixels
Height : 1 080 pixels
Display aspect ratio : 16:9
Frame rate mode : Variable
Frame rate : 23.976 fps
Color space : YUV
Chroma subsampling : 4:2:0
Bit depth : 8 bits
Scan type : Progressive
Bits/(Pixel*Frame) : 0.031
Stream size : 43.8 MiB (92%)
Writing library : x264 core 129

Audio
Format : AAC
Duration : 3mn 56s
Bit rate mode : Variable
Bit rate : 125 Kbps
Channel(s) : 2 channels
Channel positions : Front: L R
Sampling rate : 48.0 KHz
Stream size : 3.52 MiB (7%)



Volver al índice de Variados





20.12.0822:44 Uhr Rock Band AC/DC Live (Xbox360) Fun/Gesellschaft0 / 03.833 Hits VID P2P DDL 0 Kommentare | Wanted (2008) | Perdita Durango Perdita Durango (1997) Action, ThrillerEin Paar wie Nitro und Glyzerin: die Hure Perdita und Romeo Dolores, der Bankräuber, Drogenkurier und Voodoopriester. Es knallt, als sie sich an der mexikanisch-texanischen Grenze kennenlernen. Gewalt bestimmt auch weiterhin ihr Leben und ihre Liebe. Aus einer Laune heraus kidnappen Perdita und Romeo ein Teenager-Pärchen, treiben mit ihm bizarre Sexspiele und nehmen sie mit nach Las Vegas, wo sie dem Gangsterboß Santos eine brandheiße Ladung abliefern müssen. Und den Weg dahin pflastern natürlich Leichen.