mldnui.biz

Torrents
Documentales 842
Pelculas 11256
Pelculas HD 2068
Series 1961
   Episodios 22513
Series HD 244
   Episodios 2743
Juegos 2689
   PC 1736
Variados 1521
   Deportes 36
   Programas 592
   Videoclips 102
   Otros 722
Msica MP3 3525
Total Torrents 57258

Informacin
Esta web no contiene ningn tipo de fichero almacenado.

Todos los archivos se comparten mediante el BitTorrent, un programa P2P de intercambio entre usuarios.


Descarga la ltima versin de uTorrent y baja a la mxima velocidad:
Katy Perry - Dark Horse
Total Descargas:  3.842 En Febrero:  3.842

Fecha:  2016-06-26



Torrent:      Descargar         Tamao:  53,94 MB
Descripcin:

General
Format : MPEG-4
Format profile : Base Media
File size : 53.9 MiB
Duration : 3mn 45s
Overall bit rate mode : Variable
Overall bit rate : 2 004 Kbps

Video
Format : AVC
Format profile : [email protected]
Format settings, CABAC : Yes
Format settings, ReFrames : 3 frames
Duration : 3mn 44s
Bit rate : 1 924 Kbps
Maximum bit rate : 4 386 Kbps
Width : 1 280 pixels
Height : 720 pixels
Display aspect ratio : 16:9
Frame rate mode : Variable
Frame rate : 23.976 fps
Stream size : 51.6 MiB (96%)
Title : Katy Perry ft. Juicy J - Dark Horse 2014 HD 720p x264 AAC E-Subs [GWC]

Audio
Format : AAC
Format profile : LC
Duration : 3mn 45s
Bit rate mode : Variable
Channel(s) : 2 channels
Sampling rate : 48.0 KHz
Stream size : 2.23 MiB (4%)
Language : English

Text
Format : Timed Text
Duration : 3mn 45s
Bit rate mode : Variable
Stream size : 2.54 KiB (0%)
Title : English Subtitle by [GWC]
Language : English



Volver al ndice de Variados





Revolution | Watch Link | артиста мультфильм эскиз фильтр художественный